Loading...
Error
 

Скачать торрент One Desire - One Night Only (Live In Helsinki) [2021, Melodic Hard Rock, Blu-ray, 1080p]

 
Автор Сообщение

trygg

post 04-Июл-21 20:18


One Desire - One Night Only (Live In Helsinki)


pic
pic
Год выпуска: 2021
Страна: Finland pic
Жанр: Melodic Hard Rock
Продолжительность: 01:02:17 + 00:05:34 (bonus video)

Качество видео: Blu-ray
Контейнер: BDMV
Стандарт разрешения: 1080p
Видео кодек: MPEG2
Аудио кодек: PCM
Видео: 34997 Kбит/сек, 1080p, 24,000 кадров/сек, 16:9
Аудио: LPCM Audio, 2304 Кбит/сек, 2 каналa,48,0 КГц, 24-bit
Subtitle: English

pic
Frontiers Music Srl рада объявить о выпуске первого концертного альбома и видео с финской группы One Desire «One Night Only - Live In Helsinki» 11 июня 2021 года. Поклонники группы, которые имели удовольствие видеть их вживую. уже знают, насколько невероятна группа в этой обстановке, но теперь поклонники, у которых еще не было возможности, увидят сами!

Трэклист
pic
1. Shadowman
2. Apologize
3. Down And Dirty
4. Heroes
5. Godsent Extasy
6. This Is Where The Heartbreak Begins
7. Only When I Breathe
8. Falling Apart
9. After You’re Gone
10. Whenever I’m Dreaming
11. Hurt
12. Buried Alive
Бонус:
The making of [00:05:34]
After You’re Gone
Godsent Extasy
Heroes
Shadowman

BDInfo
Disc Title: One Desire
Disc Size: 19 512 926 152 bytes
Protection: AACS
BD-Java: No
BDInfo: 0.5.8

Notes:

BDINFO HOME:
Cinema Squid


INCLUDES FORUMS REPORT FOR:
AVS Forum Blu-ray Audio and Video Specifications Thread


********************
PLAYLIST: 00002.MPLS
********************

<--- BEGIN FORUMS PASTE --->

Код:

                                                                                                                Total   Video
Title                                                           Codec   Length  Movie Size      Disc Size       Bitrate Bitrate Main Audio Track                          Secondary Audio Track
-----                                                           ------  ------- --------------  --------------  ------- ------- ------------------                        ---------------------
00002.MPLS                                                      MPEG-2  1:02:17 18 242 953 920  19 512 926 152  39,05   35,00   LPCM 2.0 2304Kbps (48kHz/24-bit)


Код:



DISC INFO:

Disc Title:     One Desire
Disc Size:      19 512 926 152 bytes
Protection:     AACS
BD-Java:        No
BDInfo:         0.5.8

PLAYLIST REPORT:

Name:                   00002.MPLS
Length:                 1:02:17.252 (h:m:s.ms)
Size:                   18 242 953 920 bytes
Total Bitrate:          39,05 Mbps

VIDEO:

Codec                   Bitrate             Description
-----                   -------             -----------
MPEG-2 Video            34997 kbps          1080p / 24 fps / 16:9

AUDIO:

Codec                           Language        Bitrate         Description
-----                           --------        -------         -----------
LPCM Audio                      Undetermined    2304 kbps       2.0 / 48 kHz / 2304 kbps / 24-bit

SUBTITLES:

Codec                           Language        Bitrate         Description
-----                           --------        -------         -----------
Presentation Graphics           English         1,084 kbps

FILES:

Name            Time In         Length          Size            Total Bitrate
----            -------         ------          ----            -------------
00002.M2TS      0:00:00.000     1:02:17.252     18 242 953 920  39 052

CHAPTERS:

Number          Time In         Length          Avg Video Rate  Max 1-Sec Rate  Max 1-Sec Time  Max 5-Sec Rate  Max 5-Sec Time  Max 10Sec Rate  Max 10Sec Time  Avg Frame Size  Max Frame Size  Max Frame Time
------          -------         ------          --------------  --------------  --------------  --------------  --------------  --------------  --------------  --------------  --------------  --------------
1               0:00:00.000     0:06:19.333     35 412 kbps     44 204 kbps     00:01:35.416    40 143 kbps     00:01:18.916    39 465 kbps     00:01:26.416    184 399 bytes   683 722 bytes   00:03:05.958
2               0:06:19.333     0:03:26.916     35 000 kbps     44 175 kbps     00:09:43.916    39 937 kbps     00:06:30.041    38 295 kbps     00:07:06.416    182 294 bytes   694 158 bytes   00:09:37.958
3               0:09:46.250     0:04:49.666     34 989 kbps     43 625 kbps     00:11:04.416    39 750 kbps     00:13:30.458    38 558 kbps     00:13:02.791    182 234 bytes   662 929 bytes   00:12:19.958
4               0:14:35.917     0:04:18.708     34 982 kbps     44 014 kbps     00:18:53.416    40 326 kbps     00:18:49.458    38 531 kbps     00:14:58.791    182 199 bytes   669 013 bytes   00:16:01.958
5               0:18:54.625     0:04:42.250     35 189 kbps     44 599 kbps     00:21:44.916    39 762 kbps     00:19:04.416    39 006 kbps     00:18:55.916    183 275 bytes   664 167 bytes   00:22:50.458
6               0:23:36.876     0:05:30.208     34 995 kbps     43 590 kbps     00:24:19.916    40 308 kbps     00:25:24.625    38 110 kbps     00:25:33.416    182 267 bytes   667 350 bytes   00:25:03.458
7               0:29:07.084     0:01:46.583     35 076 kbps     42 925 kbps     00:30:04.916    39 846 kbps     00:30:38.666    39 615 kbps     00:30:38.666    182 690 bytes   597 469 bytes   00:30:09.458
8               0:30:53.668     0:05:19.916     34 908 kbps     43 461 kbps     00:33:46.916    39 849 kbps     00:35:18.958    38 993 kbps     00:33:06.416    181 810 bytes   698 453 bytes   00:34:42.458
9               0:36:13.585     0:05:00.041     34 609 kbps     44 217 kbps     00:39:05.416    39 437 kbps     00:38:40.791    38 483 kbps     00:38:40.916    180 253 bytes   689 960 bytes   00:36:42.958
10              0:41:13.626     0:04:33.333     35 347 kbps     43 887 kbps     00:41:16.916    39 771 kbps     00:41:16.916    39 512 kbps     00:41:16.916    184 098 bytes   694 405 bytes   00:44:58.958
11              0:45:46.960     0:05:53.000     35 034 kbps     43 543 kbps     00:51:36.916    40 022 kbps     00:45:51.958    39 916 kbps     00:45:47.416    182 468 bytes   685 279 bytes   00:51:37.458
12              0:51:39.960     0:05:13.791     34 932 kbps     44 144 kbps     00:55:56.916    40 142 kbps     00:56:24.458    39 487 kbps     00:56:31.791    181 937 bytes   667 350 bytes   00:52:08.958
13              0:56:53.752     0:05:23.500     34 512 kbps     44 037 kbps     01:01:20.416    39 792 kbps     01:00:51.166    38 999 kbps     00:57:44.916    179 819 bytes   702 232 bytes   00:58:07.958

STREAM DIAGNOSTICS:

File            PID             Type            Codec           Language                Seconds                 Bitrate                 Bytes           Packets
----            ---             ----            -----           --------                --------------          --------------          -------------   -----
00002.M2TS      4113 (0x1011)   0x02            MPEG-2                                  3737,125                34 999                  16 349 495 096  88 908 427
00002.M2TS      4352 (0x1100)   0x80            LPCM            und (Undetermined)      3737,125                2 311                   1 079 528 624   5 980 768
00002.M2TS      4608 (0x1200)   0x90            PGS             eng (English)           3737,125                1                       506 644         3 067

<---- END FORUMS PASTE ---->

QUICK SUMMARY:

Disc Title: One Desire
Disc Size: 19 512 926 152 bytes
Protection: AACS
BD-Java: No
Playlist: 00002.MPLS
Size: 18 242 953 920 bytes
Length: 1:02:17.252
Total Bitrate: 39,05 Mbps
Video: MPEG-2 Video / 34997 kbps / 1080p / 24 fps / 16:9
Audio: Undetermined / LPCM Audio / 2.0 / 48 kHz / 2304 kbps / 24-bit
Subtitle: English / 1,084 kbps

********************
PLAYLIST: 00004.MPLS
********************

<--- BEGIN FORUMS PASTE --->

Код:

                                                                                                                Total   Video
Title                                                           Codec   Length  Movie Size      Disc Size       Bitrate Bitrate Main Audio Track                          Secondary Audio Track
-----                                                           ------  ------- --------------  --------------  ------- ------- ------------------                        ---------------------
00004.MPLS                                                      MPEG-2  0:05:34 415 967 232     19 512 926 152  9,96    7,08    LPCM 2.0 2304Kbps (48kHz/24-bit)


Код:



DISC INFO:

Disc Title:     One Desire
Disc Size:      19 512 926 152 bytes
Protection:     AACS
BD-Java:        No
BDInfo:         0.5.8

PLAYLIST REPORT:

Name:                   00004.MPLS
Length:                 0:05:34.166 (h:m:s.ms)
Size:                   415 967 232 bytes
Total Bitrate:          9,96 Mbps

VIDEO:

Codec                   Bitrate             Description
-----                   -------             -----------
MPEG-2 Video            7084 kbps           1080p / 24 fps / 16:9

AUDIO:

Codec                           Language        Bitrate         Description
-----                           --------        -------         -----------
LPCM Audio                      Undetermined    2304 kbps       2.0 / 48 kHz / 2304 kbps / 24-bit

FILES:

Name            Time In         Length          Size            Total Bitrate
----            -------         ------          ----            -------------
00004.M2TS      0:00:00.000     0:05:34.166     415 967 232     9 958

CHAPTERS:

Number          Time In         Length          Avg Video Rate  Max 1-Sec Rate  Max 1-Sec Time  Max 5-Sec Rate  Max 5-Sec Time  Max 10Sec Rate  Max 10Sec Time  Avg Frame Size  Max Frame Size  Max Frame Time
------          -------         ------          --------------  --------------  --------------  --------------  --------------  --------------  --------------  --------------  --------------  --------------
1               0:00:00.000     0:01:18.916     7 189 kbps      12 873 kbps     00:00:03.958    8 962 kbps      00:00:00.208    8 099 kbps      00:00:00.333    37 405 bytes    354 598 bytes   00:00:09.000
2               0:01:18.916     0:01:22.291     7 148 kbps      12 314 kbps     00:02:31.958    8 980 kbps      00:01:19.500    8 353 kbps      00:01:19.208    37 229 bytes    256 777 bytes   00:01:27.500
3               0:02:41.208     0:01:12.291     6 991 kbps      14 240 kbps     00:02:44.458    9 918 kbps      00:02:42.000    8 448 kbps      00:02:56.458    36 413 bytes    283 089 bytes   00:02:44.500
4               0:03:53.500     0:01:40.666     7 014 kbps      12 310 kbps     00:03:56.458    8 971 kbps      00:03:53.750    8 071 kbps      00:04:07.958    36 564 bytes    249 244 bytes   00:04:02.500

STREAM DIAGNOSTICS:

File            PID             Type            Codec           Language                Seconds                 Bitrate                 Bytes           Packets
----            ---             ----            -----           --------                --------------          --------------          -------------   -----
00004.M2TS      4113 (0x1011)   0x02            MPEG-2                                  334,125                 7 085                   295 890 071     1 612 707
00004.M2TS      4352 (0x1100)   0x80            LPCM            und (Undetermined)      334,125                 2 344                   97 904 744      542 409

<---- END FORUMS PASTE ---->

QUICK SUMMARY:

Disc Title: One Desire
Disc Size: 19 512 926 152 bytes
Protection: AACS
BD-Java: No
Playlist: 00004.MPLS
Size: 415 967 232 bytes
Length: 0:05:34.166
Total Bitrate: 9,96 Mbps
Video: MPEG-2 Video / 7084 kbps / 1080p / 24 fps / 16:9
Audio: Undetermined / LPCM Audio / 2.0 / 48 kHz / 2304 kbps / 24-bit

********************
PLAYLIST: 00001.MPLS
********************

<--- BEGIN FORUMS PASTE --->

Код:

                                                                                                                Total   Video
Title                                                           Codec   Length  Movie Size      Disc Size       Bitrate Bitrate Main Audio Track                          Secondary Audio Track
-----                                                           ------  ------- --------------  --------------  ------- ------- ------------------                        ---------------------
00001.MPLS                                                      MPEG-2  0:02:29 324 808 704     19 512 926 152  17,38   14,81   LPCM 2.0 1536Kbps (48kHz/16-bit)


Код:



DISC INFO:

Disc Title:     One Desire
Disc Size:      19 512 926 152 bytes
Protection:     AACS
BD-Java:        No
BDInfo:         0.5.8

PLAYLIST REPORT:

Name:                   00001.MPLS
Length:                 0:02:29.549 (h:m:s.ms)
Size:                   324 808 704 bytes
Total Bitrate:          17,38 Mbps

VIDEO:

Codec                   Bitrate             Description
-----                   -------             -----------
MPEG-2 Video            14809 kbps          1080p / 24 fps / 16:9

AUDIO:

Codec                           Language        Bitrate         Description
-----                           --------        -------         -----------
LPCM Audio                      Undetermined    1536 kbps       2.0 / 48 kHz / 1536 kbps / 16-bit

SUBTITLES:

Codec                           Language        Bitrate         Description
-----                           --------        -------         -----------
Interactive Graphics            Undetermined    1,850 kbps

FILES:

Name            Time In         Length          Size            Total Bitrate
----            -------         ------          ----            -------------
00001.M2TS      0:00:00.000     0:02:29.549     324 808 704     17 371

CHAPTERS:

Number          Time In         Length          Avg Video Rate  Max 1-Sec Rate  Max 1-Sec Time  Max 5-Sec Rate  Max 5-Sec Time  Max 10Sec Rate  Max 10Sec Time  Avg Frame Size  Max Frame Size  Max Frame Time
------          -------         ------          --------------  --------------  --------------  --------------  --------------  --------------  --------------  --------------  --------------  --------------
1               0:00:00.000     0:02:29.549     14 813 kbps     19 252 kbps     00:01:19.458    15 552 kbps     00:00:53.833    15 576 kbps     00:01:10.458    77 132 bytes    562 846 bytes   00:00:13.500

STREAM DIAGNOSTICS:

File            PID             Type            Codec           Language                Seconds                 Bitrate                 Bytes           Packets
----            ---             ----            -----           --------                --------------          --------------          -------------   -----
00001.M2TS      4113 (0x1011)   0x02            MPEG-2                                  149,500                 14 818                  276 905 612     1 507 033
00001.M2TS      4352 (0x1100)   0x80            LPCM            und (Undetermined)      149,500                 1 543                   28 833 124      179 459
00001.M2TS      5120 (0x1400)   0x91            IGS             und (Undetermined)      149,500                 2                       34 592          193

<---- END FORUMS PASTE ---->

QUICK SUMMARY:

Disc Title: One Desire
Disc Size: 19 512 926 152 bytes
Protection: AACS
BD-Java: No
Playlist: 00001.MPLS
Size: 324 808 704 bytes
Length: 0:02:29.549
Total Bitrate: 17,38 Mbps
Video: MPEG-2 Video / 14809 kbps / 1080p / 24 fps / 16:9
Audio: Undetermined / LPCM Audio / 2.0 / 48 kHz / 1536 kbps / 16-bit
Subtitle: Undetermined / 1,850 kbps

********************
PLAYLIST: 00003.MPLS
********************

<--- BEGIN FORUMS PASTE --->

Код:

                                                                                                                Total   Video
Title                                                           Codec   Length  Movie Size      Disc Size       Bitrate Bitrate Main Audio Track                          Secondary Audio Track
-----                                                           ------  ------- --------------  --------------  ------- ------- ------------------                        ---------------------
00003.MPLS                                                      MPEG-2  0:02:13 275 011 584     19 512 926 152  16,52   15,76


Код:



DISC INFO:

Disc Title:     One Desire
Disc Size:      19 512 926 152 bytes
Protection:     AACS
BD-Java:        No
BDInfo:         0.5.8

PLAYLIST REPORT:

Name:                   00003.MPLS
Length:                 0:02:13.208 (h:m:s.ms)
Size:                   275 011 584 bytes
Total Bitrate:          16,52 Mbps

VIDEO:

Codec                   Bitrate             Description
-----                   -------             -----------
MPEG-2 Video            15756 kbps          1080p / 24 fps / 16:9

SUBTITLES:

Codec                           Language        Bitrate         Description
-----                           --------        -------         -----------
Interactive Graphics            Undetermined    1,837 kbps

FILES:

Name            Time In         Length          Size            Total Bitrate
----            -------         ------          ----            -------------
00003.M2TS      0:00:00.000     0:02:13.208     275 011 584     16 516

CHAPTERS:

Number          Time In         Length          Avg Video Rate  Max 1-Sec Rate  Max 1-Sec Time  Max 5-Sec Rate  Max 5-Sec Time  Max 10Sec Rate  Max 10Sec Time  Avg Frame Size  Max Frame Size  Max Frame Time
------          -------         ------          --------------  --------------  --------------  --------------  --------------  --------------  --------------  --------------  --------------  --------------
1               0:00:00.000     0:02:13.208     15 756 kbps     19 567 kbps     00:01:24.458    17 222 kbps     00:01:22.291    17 278 kbps     00:01:19.458    82 061 bytes    502 813 bytes   00:00:30.000

STREAM DIAGNOSTICS:

File            PID             Type            Codec           Language                Seconds                 Bitrate                 Bytes           Packets
----            ---             ----            -----           --------                --------------          --------------          -------------   -----
00003.M2TS      4113 (0x1011)   0x02            MPEG-2                                  133,125                 15 765                  262 347 591     1 427 664
00003.M2TS      5120 (0x1400)   0x91            IGS             und (Undetermined)      133,125                 2                       30 584          198

<---- END FORUMS PASTE ---->

QUICK SUMMARY:

Disc Title: One Desire
Disc Size: 19 512 926 152 bytes
Protection: AACS
BD-Java: No
Playlist: 00003.MPLS
Size: 275 011 584 bytes
Length: 0:02:13.208
Total Bitrate: 16,52 Mbps
Video: MPEG-2 Video / 15756 kbps / 1080p / 24 fps / 16:9
Subtitle: Undetermined / 1,837 kbps

pic
Скриншоты


pic
pic

One Desire.torrent
 ЗОЛОТАЯ РАЗДАЧА! СКАЧАННОЕ НЕ ЗАСЧИТЫВАЕТСЯ! 
Вечный
Трекер: Зарегистрирован

magnet ссылка

 


Скачать .torrent

93 KB

Статус: проверено (by Myster_Ya в 04-Июл-21 20:55)
Зарегистрирован: 04-Июл-21 20:18
Скачан: 2 раза
Размер: 18.17 GB | 
Поблагодарили:
Скачать One Desire - One Night Only (Live In Helsinki) [2021, Melodic Hard Rock, Blu-ray, 1080p] торрент
 


Похожие раздачи

Текущее время: 24-Июл 01:02

Часовой пояс: GMT + 3



Вы не можете начинать темы
Вы не можете отвечать на сообщения
Вы не можете редактировать свои сообщения
Вы не можете удалять свои сообщения
Вы не можете голосовать в опросах
Вы не можете прикреплять файлы к сообщениям
Вы не можете скачивать файлы