Loading...
Error
 

Скачать торрент (Chiptune, 8-bit) LukHash - CyberChip - 2021, [WEB] [FLAC, tracks, lossless]

 
Автор Сообщение

Myster_Ya

post 08-Июн-21 01:50

pic
LukHash - CyberChip

Жанр: Chiptune, 8-bit
Носитель: WEB
Год издания: 2021
Издатель (лейбл): LukHash
Страна: UK
Аудиокодек: FLAC (*.flac)
Тип рипа: tracks
Продолжительность: 00:37:17
Источник: bandcamp [name your price]
Наличие сканов в содержимом раздачи: нет
Треклист:
01. LukHash - Perpetual Motion 8580R5 2887 25 HK (3:17)
02. LukHash - Cyberiad Theory 6581R4AR 3789 14 HK (4:38)
03. LukHash - The Other Side 6581R2 0983 KR (3:22)
04. LukHash - Falling Down 8580R5 5092 25 PH (3:38)
05. LukHash - Code Veronica 6581R3 3384 TW (3:43)
06. LukHash - Another World 6581R4AR 2786 S HK (3:21)
07. LukHash - Neon Thrills 8580R5 0788 25 HK (4:21)
08. LukHash - Hongdae 6581R3 1485 KR (3:35)
09. LukHash - Proxima 8580R5 5090 25 HK (4:11)
10. LukHash - Alpha 6581R4AR 3586 S HK (3:07)
DR

Код:

foobar2000 1.5.5 / Замер динамического диапазона (DR) 1.1.1
Дата отчёта:  2021-05-29 21:11:21

--------------------------------------------------------------------------------
Анализ:   LukHash / CyberChip
--------------------------------------------------------------------------------

DR         Пики         RMS           Продолжительность трека
--------------------------------------------------------------------------------
DR9       -0.33 дБ   -10.86 дБ      3:17 01-Perpetual Motion 8580R5 2887 25 HK
DR7       -0.42 дБ    -9.74 дБ      4:38 02-Cyberiad Theory 6581R4AR 3789 14 HK
DR9       -0.33 дБ   -10.85 дБ      3:22 03-The Other Side 6581R2 0983 KR
DR7       -1.94 дБ   -10.42 дБ      3:38 04-Falling Down 8580R5 5092 25 PH
DR8       -0.93 дБ   -10.70 дБ      3:43 05-Code Veronica 6581R3 3384 TW
DR7       -1.98 дБ   -11.49 дБ      3:21 06-Another World 6581R4AR 2786 S HK
DR9       -0.33 дБ   -11.08 дБ      4:21 07-Neon Thrills 8580R5 0788 25 HK
DR7       -1.23 дБ   -11.02 дБ      3:35 08-Hongdae 6581R3 1485 KR
DR7       -2.67 дБ   -12.13 дБ      4:11 09-Proxima 8580R5 5090 25 HK
DR7       -1.69 дБ   -11.17 дБ      3:07 10-Alpha 6581R4AR 3586 S HK
--------------------------------------------------------------------------------

Количество треков: 10
Реальные значения DR: DR8

Частота:   44100 Гц
Каналов:   2
Разрядность:   16
Битрейт:   700 кбит/с
Кодек:   FLAC
================================================================================

Лог проверки качества

Код:

fooCDtect - foobar2000 + auCDtect, baralgin.

auCDtect: CD records authenticity detector, version 0.8.2
Copyright (c) 2004 Oleg Berngardt. All rights reserved.
Copyright (c) 2004 Alexander Djourik. All rights reserved.

     mode: 40

===========================================
    Track: 01. LukHash - Perpetual Motion 8580R5 2887 25 HK
  Quality: CDDA 100%
===========================================
    Track: 03. LukHash - The Other Side 6581R2 0983 KR
  Quality: CDDA 100%
===========================================
    Track: 02. LukHash - Cyberiad Theory 6581R4AR 3789 14 HK
  Quality: CDDA 100%
===========================================
    Track: 04. LukHash - Falling Down 8580R5 5092 25 PH
  Quality: CDDA 100%
===========================================
    Track: 05. LukHash - Code Veronica 6581R3 3384 TW
  Quality: CDDA 100%
===========================================
    Track: 06. LukHash - Another World 6581R4AR 2786 S HK
  Quality: CDDA 100%
===========================================
    Track: 07. LukHash - Neon Thrills 8580R5 0788 25 HK
  Quality: CDDA 100%
===========================================
    Track: 08. LukHash - Hongdae 6581R3 1485 KR
  Quality: CDDA  99%
===========================================
    Track: 09. LukHash - Proxima 8580R5 5090 25 HK
  Quality: CDDA  99%
===========================================
    Track: 10. LukHash - Alpha 6581R4AR 3586 S HK
  Quality: CDDA  99%
===========================================




LukHash - 2021 - CyberChip (WEB-FLAC).torrent
Трекер: Зарегистрирован

magnet ссылка

 


Скачать .torrent

17 KB

Статус: проверено (by Snowden в 08-Июн-21 02:26)
Зарегистрирован: 08-Июн-21 01:50
Скачан: 12 раз
Размер: 196 MB | 
Поблагодарили:
Скачать (Chiptune, 8-bit) LukHash - CyberChip - 2021, [WEB] [FLAC, tracks, lossless] торрент
 


Похожие раздачи

Текущее время: 21-Июн 13:51

Часовой пояс: GMT + 3



Вы не можете начинать темы
Вы не можете отвечать на сообщения
Вы не можете редактировать свои сообщения
Вы не можете удалять свои сообщения
Вы не можете голосовать в опросах
Вы не можете прикреплять файлы к сообщениям
Вы не можете скачивать файлы