Loading...
Error
 

Скачать торрент Истребитель демонов: Поезд «Бесконечный» / Kimetsu no Yaiba: Mugen Ressha-Hen (Харуо Сотодзаки) [2020 г., аниме, мультфильм, боевик, фэнтези, WEB-DLRip 1080p] DUB (Line)

 
Автор Сообщение

Theseus

post 05-Июн-21 19:06

pic
Истребитель демонов: Поезд «Бесконечный» / Kimetsu no Yaiba: Mugen Ressha-Hen

Год выхода: 2020
Страна: Япония
Жанр: аниме, мультфильм, боевик, фэнтези
Продолжительность: 01:56:35
Перевод: Дублированный (Line)
Субтитры: Английские (hardsub)
Режиссер: Харуо Сотодзаки
В ролях: Нацуки Ханаэ, Ёсицугу Мацуока, Сатоси Хино, Дзюнъя Эноки, Хиро Симоно, Акари Кито, Саори Хаями, Даисукэ Хиракава, Каэдэ Хондо, Мария Исэ
О фильме: Завершив оздоровительные тренировки в Доме бабочки, Тандзиро и его друзья отправляются выполнять новое задание. На поезде «Бесконечный» творится что-то неладное: в одночасье там исчезает более 40 человек! А значит, Тандзиро, Нэдзуко, Иносукэ и Дзэницу предстоит сразиться с могущественным демоном. Присоединившись к одному из сильнейших мечников, пламенному столпу Кёдзюро Рэнгоку, герои бросают вызов врагу, в то время как поезд «Бесконечный» мчится в долину отчаяния.
pic pic
Качество: WEB-DLRip 1080p
Формат: MKV
Видео кодек: x.264
Аудио кодек: AAC
Видео: AVC, 1920x1080 (16:9), 23.976 fps, 6 572 kb/s
Аудио: AAC, 48.0 kHz, 2 ch, 384 kb/s
Сэмпл
Присутствует баннер, звуковая реклама
MI

Код:

Общее
Уникальный идентификатор                 : 200074659179103737073919606406999125391 (0x9684FA4C076D4539A46B9EA10B7F2D8F)
Полное имя                               : Kimetsu.no.Yaiba.Mugen.Ressha.Hen.2020.WEB-DL.1080p.Line.mkv
Формат                                   : Matroska
Версия формата                           : Version 4
Размер файла                             : 5,67 Гбайт
Продолжительность                        : 1 ч. 56 м.
Режим общего битрейта                    : Переменный
Общий поток                              : 6956 Кбит/сек
Дата кодирования                         : UTC 2021-06-05 15:57:34
Программа кодирования                    : mkvmerge v8.3.0 ('Over the Horizon') 64bit
Библиотека кодирования                   : libebml v1.3.1 + libmatroska v1.4.2

Видео
Идентификатор                            : 1
Формат                                   : AVC
Формат/Информация                        : Advanced Video Codec
Профиль формата                          : [email protected]
Настройки формата                        : CABAC / 4 Ref Frames
Параметр CABAC формата                   : Да
Параметр RefFrames формата               : 4 кадра
Идентификатор кодека                     : V_MPEG4/ISO/AVC
Продолжительность                        : 1 ч. 56 м.
Вид битрейта                             : Переменный
Битрейт                                  : 6572 Кбит/сек
Максимальный битрейт                     : 8000 Кбит/сек
Ширина                                   : 1920 пикселей
Высота                                   : 1080 пикселей
Соотношение сторон                       : 16:9
Режим частоты кадров                     : Постоянный
Частота кадров                           : 23,976 (24000/1001) кадра/сек
Стандарт вещания                         : Component
Цветовое пространство                    : YUV
Субдискретизация насыщенности            : 4:2:0
Битовая глубина                          : 8 бит
Тип развёртки                            : Прогрессивная
Бит/(Пиксели*Кадры)                      : 0.132
Размер потока                            : 5,35 Гбайт (94%)
Default                                  : Да
Forced                                   : Нет
Цветовой диапазон                        : Limited
Основные цвета                           : BT.709
Характеристики трансфера                 : BT.709
Коэффициенты матрицы                     : BT.709

Аудио
Идентификатор                            : 2
Формат                                   : AAC Main
Формат/Информация                        : Advanced Audio Codec
Идентификатор кодека                     : A_AAC-1
Продолжительность                        : 1 ч. 56 м.
Битрейт                                  : 384 Кбит/сек
Каналы                                   : 2 канала
Channel layout                           : L R
Частота                                  : 48,0 КГц
Частота кадров                           : 46,875 кадров/сек (1024 SPF)
Метод сжатия                             : С потерями
Задержка видео                           : 21 мс.
Размер потока                            : 318 Мбайт (5%)
Заголовок                                : DUB (Line)
Язык                                     : Russian
Default                                  : Да
Forced                                   : Нет
Трейлер
Скриншоты

pic

pic



Kimetsu.no.Yaiba.Mugen.Ressha.Hen.2020.WEB-DL.1080p.Line.torrent
 СЕРЕБРЯНАЯ РАЗДАЧА! СКАЧАННОЕ ЗАСЧИТЫВАЕТСЯ ТОЛЬКО НАПОЛОВИНУ! 
Вечный
Трекер: Зарегистрирован

magnet ссылка

 


Скачать .torrent

29 KB

Статус: T временно (by Арт33 в 05-Июн-21 21:59)
Зарегистрирован: 05-Июн-21 19:06
Скачан: 144 раза
Размер: 5.67 GB | 
Поблагодарили:
Скачать Истребитель демонов: Поезд «Бесконечный» / Kimetsu no Yaiba: Mugen Ressha-Hen (Харуо Сотодзаки) [2020 г., аниме, мультфильм, боевик, фэнтези, WEB-DLRip 1080p] DUB (Line) торрент
 


Похожие раздачи

Theseus

post 05-Июн-21 19:17 (спустя 11 минут)

Полнометражный мультфильм, продолжение анимэ-сериала "Истребитель демонов" (сериал 2019 – ...)
Сборы в мире= $498 500 000
Премьера в Росcии - 20 мая 2021, «СППР»
Премьера в мире - 16 октября 2020

free111

post 05-Июн-21 19:46 (спустя 28 минут)

Это сиквел сериала,а не наоборот,сериал приквел к поезду

Хамид

post 07-Июн-21 20:06 (спустя 2 дня)

звук с посторонними шумами

Theseus

post 07-Июн-21 20:10 (спустя 3 минуты)

Хамид Дублированный (Line) - это норм ...
От кошары (теперь они ultradox / octopus) все практически релизы с Line - часто присутствует шум

Jordan45

post 07-Июн-21 22:26 (спустя 2 часа 15 минут)

еще и реклама
во наркоманы

LeVoNDeM

post 09-Июн-21 22:53 (спустя 2 дня)

Шикарная полнометражка получилась, понравилась больше сериала.

Atashka56

post 13-Июн-21 02:10 (спустя 3 дня)

Когда будет с чистым звуком неизвестно?

Текущее время: 13-Июн 17:36

Часовой пояс: GMT + 3



Вы не можете начинать темы
Вы не можете отвечать на сообщения
Вы не можете редактировать свои сообщения
Вы не можете удалять свои сообщения
Вы не можете голосовать в опросах
Вы не можете прикреплять файлы к сообщениям
Вы не можете скачивать файлы