Loading...
Error
 

Скачать торрент Истребитель демонов | 1 сезон: 1-26 серии из 26 | Kimetsu no Yaiba (Харуо Сотодзаки) [2019, Аниме, мультфильм, боевик, фэнтези, BDRip 1080p] DUB | StudioBand

 
Автор Сообщение

Ankiler

post 06-Июн-21 15:16

«Истребитель демонов | Kimetsu no Yaiba»

pic
- Год выхода: 2019
- Страна: Япония
- Жанр: Аниме, мультфильм, боевик, фэнтези
- Продолжительность: ~ 00:24:00
- Перевод: Дублированный [StudioBand]
- Субтитры: Russian (Full)
- Сезон: 1
- Серии: 1-26 из 26
- Режиссер: Харуо Сотодзаки
- В ролях: Нацуки Ханаэ, Акари Кито, Ёсицугу Мацуока, Такахиро Сакурай, Хиро Симоно
- О фильме: Эпоха Тайсё. Ещё с древних времён ходят слухи, что в лесу обитают человекоподобные демоны, которые питаются людьми и выискивают по ночам новых жертв. Тандзиро Камадо — старший сын в семье, потерявший отца и взявший на себя заботу о родных. Однажды он уходит в соседний город, чтобы продать древесный уголь. Вернувшись утром, парень обнаруживает перед собой страшную картину: вся родня зверски убита, а единственная выжившая - младшая сестра Нэдзуко, обращённая в демона, но пока не потерявшая человечность. С этого момента начинается долгое и опасное путешествие Тандзиро и Нэдзуко, в котором мальчик намерен разыскать убийцу и узнать способ исцеления сестры.

- Качество: BDRip 1080p
- Формат: MKV
- Видео кодек: AVC
- Аудио кодек: AAC, FLAC
- Видео: AVC, 1920x1080 (16:9), 23.976 fps, 9 749 Kbps (0.196 bit/pixel)
- Аудио: AAC LC 48.0 KHz, 2 ch, 192 Kbps Russian | NewComers
- Аудио: FLAC 48.0 KHz, 2 ch, 1 438 Kbps Japanese | Original
Рейтинг
pic
MediaInfo

Код:

Kimetsu.no.Yaiba.s01.2019.BDRip.1080p/01.Cruelty.mkv
Format                                   : Matroska
Format version                           : Version 4 / Version 2
File size                                : 1.88 GiB
Duration                                 : 23mn 41s
Overall bit rate mode                    : Variable
Overall bit rate                         : 11.4 Mbps
Movie name                               : Kimetsu no Yaiba s01e01
Encoded date                             : UTC 2021-03-30 13:48:55
Writing application                      : mkvmerge v49.0.0 ('Sick Of Losing Soulmates') 64-bit
Writing library                          : libebml v1.4.0 + libmatroska v1.6.1
Attachments                              : OpenSans-Semibold.ttf / Cambria Bold.ttf / Deca Serif New.otf / Verdanab.TTF / Verdanaz.TTF

Video
ID                                       : 1
Format                                   : AVC
Format/Info                              : Advanced Video Codec
Format profile                           : [email protected]
Format settings, CABAC                   : Yes
Format settings, ReFrames                : 4 frames
Codec ID                                 : V_MPEG4/ISO/AVC
Duration                                 : 23mn 41s
Bit rate                                 : 9 749 Kbps
Width                                    : 1 920 pixels
Height                                   : 1 080 pixels
Display aspect ratio                     : 16:9
Frame rate mode                          : Constant
Frame rate                               : 23.976 (24000/1001) fps
Color space                              : YUV
Chroma subsampling                       : 4:2:0
Bit depth                                : 8 bits
Scan type                                : Progressive
Bits/(Pixel*Frame)                       : 0.196
Stream size                              : 1.61 GiB (86%)
Title                                    : FY-X264 Video
Writing library                          : x264 core 142 r2431+42 c69a006 tMod [[email protected]:2:0 X86_64]
Encoding settings                        : cabac=1 / ref=4 / deblock=1:0:0 / analyse=0x3:0x133 / me=tesa / subme=11 / psy=1 / fade_compensate=0.60 / psy_rd=0.80:0.20 / mixed_ref=1 / me_range=32 / chroma_me=1 / trellis=2 / 8x8dct=1 / cqm=0 / deadzone=21,11 / fast_pskip=0 / chroma_qp_offset=-3 / threads=18 / lookahead_threads=4 / sliced_threads=0 / nr=0 / decimate=1 / interlaced=0 / bluray_compat=0 / constrained_intra=0 / fgo=3 / bframes=16 / b_pyramid=2 / b_adapt=2 / b_bias=0 / direct=3 / weightb=1 / open_gop=0 / weightp=2 / keyint=240 / keyint_min=23 / scenecut=40 / intra_refresh=0 / rc_lookahead=240 / rc=crf / mbtree=1 / crf=18.0000 / qcomp=0.75 / qpmin=0:0:0 / qpmax=69:69:69 / qpstep=4 / vbv_maxrate=25000 / vbv_bufsize=31250 / crf_max=0.0 / nal_hrd=none / filler=0 / ip_ratio=1.40 / aq=1:0.80 / aq-sensitivity=10.00 / aq-factor=1.00:1.00:1.00 / aq2=0 / aq3=0
Language                                 : Japanese
Default                                  : Yes
Forced                                   : No

Audio #1
ID                                       : 2
Format                                   : AAC
Format/Info                              : Advanced Audio Codec
Format profile                           : LC
Codec ID                                 : A_AAC
Duration                                 : 23mn 40s
Bit rate                                 : 192 Kbps
Channel(s)                               : 2 channels
Channel positions                        : Front: L R
Sampling rate                            : 48.0 KHz
Frame rate                               : 46.875 fps (1024 spf)
Compression mode                         : Lossy
Stream size                              : 32.1 MiB (2%)
Title                                    : [Wakanim]
Language                                 : Russian
Default                                  : Yes
Forced                                   : No

Audio #2
ID                                       : 3
Format                                   : FLAC
Format/Info                              : Free Lossless Audio Codec
Codec ID                                 : A_FLAC
Duration                                 : 23mn 41s
Bit rate mode                            : Variable
Bit rate                                 : 1 438 Kbps
Channel(s)                               : 2 channels
Channel positions                        : Front: L R
Sampling rate                            : 48.0 KHz
Frame rate                               : 11.719 fps (4096 spf)
Bit depth                                : 24 bits
Stream size                              : 244 MiB (13%)
Title                                    : Original
Writing library                          : libFLAC 1.3.2 (UTC 2017-01-01)
Language                                 : Japanese
Default                                  : No
Forced                                   : No

Text #1
ID                                       : 4
Format                                   : ASS
Codec ID                                 : S_TEXT/ASS
Codec ID/Info                            : Advanced Sub Station Alpha
Duration                                 : 8mn 42s
Bit rate                                 : 5 bps
Count of elements                        : 3
Compression mode                         : Lossless
Stream size                              : 328 Bytes (0%)
Title                                    : Надписи [YakuSub Studio]
Language                                 : Russian
Default                                  : Yes
Forced                                   : No

Text #2
ID                                       : 5
Format                                   : ASS
Codec ID                                 : S_TEXT/ASS
Codec ID/Info                            : Advanced Sub Station Alpha
Duration                                 : 23mn 12s
Bit rate                                 : 118 bps
Count of elements                        : 271
Compression mode                         : Lossless
Stream size                              : 20.1 KiB (0%)
Title                                    : Полные [Wakanim]
Language                                 : Russian
Default                                  : No
Forced                                   : No

Menu
00:00:00.000                             : en:chapter 1
00:00:59.059                             : en:chapter 2
00:21:06.515                             : en:subtitle
00:21:10.019                             : en:opening theme
00:22:39.984                             : en:ending theme

Скриншоты
Внимание!: Раздача ведётся путём добавления новых серий
Внимание! Раздача ведётся путём добавления новых серий; при каждом добавлении создётся новый торрент. Чтобы начать докачку новой серии, пользователям необходимо сделать следующее:
(1) остановить скачивание,
(2) удалить старый торрент у себя из клиента (старые серии удалять не надо),
(3) скачать новый торрент и запустить его у себя в клиенте вместо старого, при этом указать клиенту путь в старую папку куда и должно происходить скачивание новых серий.

Ваш клиент при этом должен произвести хеширование (проверку) старой папки (если не производит сам - помогите ему сделать это), и будет докачивать только те серии которых у вас ещё нет. Старые серии при этом не удаляются, а продолжают раздаваться!

Eсли вы уже удалили старые серии, то предотвратить повторную закачку старых серий можно, отжав галочку в соответсвующих местах при запуске нового торрента. По возможности, желательно не удалять старые серии как можно дольше чтобы релизёр не столько продолжал раздавать старые серии, а смог сконцентрироваться на новых.

Kimetsu.no.Yaiba.s01.2019.BDRip.1080p.torrent
 ЗОЛОТАЯ РАЗДАЧА! СКАЧАННОЕ НЕ ЗАСЧИТЫВАЕТСЯ! 
Вечный
Трекер: Зарегистрирован

magnet ссылка

 


Скачать .torrent

333 KB

Статус: проверено (by Арт33 в 07-Июн-21 00:23)
Зарегистрирован: 06-Июн-21 15:16
Скачан: 25 раз
Размер: 33.12 GB | 
Поблагодарили:
Скачать Истребитель демонов | 1 сезон: 1-26 серии из 26 | Kimetsu no Yaiba (Харуо Сотодзаки) [2019, Аниме, мультфильм, боевик, фэнтези, BDRip 1080p] DUB | StudioBand торрент
 


Похожие раздачи

andreypplk

post 06-Июн-21 16:36 (спустя 1 час 19 минут)

Очень классный сериал пару недель как пересматривал рекомендую всем даже детям от 7 лет

Starkinc

post 06-Июн-21 19:07 (спустя 2 часа 31 минута)

Прежде чем смотреть сам полнометражный аниме необходимо посмотреть этот аниме?

gronar

post 06-Июн-21 22:39 (спустя 3 часа)

Starkinc
Да.

Lok1x

post 06-Июн-21 23:59 (спустя 1 час 19 минут)

Супер аниме! Прям очень понравилось.

Текущее время: 24-Июл 02:25

Часовой пояс: GMT + 3



Вы не можете начинать темы
Вы не можете отвечать на сообщения
Вы не можете редактировать свои сообщения
Вы не можете удалять свои сообщения
Вы не можете голосовать в опросах
Вы не можете прикреплять файлы к сообщениям
Вы не можете скачивать файлы